<?xml version="1.0" standalone="no"?>
<!DOCTYPE svg PUBLIC "-//W3C//DTD SVG 1.1//EN" "http://www.w3.org/Graphics/SVG/1.1/DTD/svg11.dtd" >
<svg xmlns="http://www.w3.org/2000/svg" xmlns:xlink="http://www.w3.org/1999/xlink" version="1.1">
<metadata>
Created by FontForge 20190801 at Tue Apr 12 01:05:19 2011
 By www-data
Copyright (c) Phanlop Thongsuk, 1995-2011. All rights reserved.
</metadata>
<defs>
<font id="PSLKandaModernPro" horiz-adv-x="0" >
  <font-face 
    font-family="PSLKandaModernPro"
    font-weight="700"
    font-stretch="normal"
    units-per-em="1000"
    panose-1="2 0 5 6 0 0 0 2 0 4"
    ascent="800"
    descent="-200"
    x-height="341"
    cap-height="471"
    bbox="-406 -300 732 781"
    underline-thickness="40"
    underline-position="-80"
    unicode-range="U+0020-F880"
  />
<missing-glyph horiz-adv-x="781" 
d="M49 0v781h683v-781h-683zM684 49v683h-586v-683h586z" />
    <glyph glyph-name=".notdef" horiz-adv-x="781" 
d="M49 0v781h683v-781h-683zM684 49v683h-586v-683h586z" />
    <glyph glyph-name=".null" 
 />
    <glyph glyph-name="nonmarkingreturn" horiz-adv-x="333" 
 />
    <glyph glyph-name="space" unicode=" " horiz-adv-x="240" 
 />
    <glyph glyph-name="space" unicode="&#xa0;" horiz-adv-x="240" 
 />
    <glyph glyph-name="exclam" unicode="!" horiz-adv-x="168" 
d="M115 324l-17 -203h-27l-18 203v147h62v-147zM120 0h-72v73h72v-73z" />
    <glyph glyph-name="quotedbl" unicode="&#x22;" horiz-adv-x="275" 
d="M205 301h-44v170h44v-170zM115 301h-44v170h44v-170z" />
    <glyph glyph-name="numbersign" unicode="#" horiz-adv-x="360" 
d="M338 280h-64l-13 -99h58v-45h-65l-19 -136h-44l19 136h-81l-18 -136h-45l18 136h-62v45h69l14 99h-66v45h72l18 135h45l-19 -135h80l19 135h45l-19 -135h58v-45zM229 280h-80l-13 -99h80z" />
    <glyph glyph-name="dollar" unicode="$" horiz-adv-x="419" 
d="M395 124q0 -59 -46.5 -94t-116.5 -40v-65h-44v65q-72 6 -118.5 49t-45.5 116h58q-2 -46 28.5 -76t77.5 -36v177q-42 10 -63 17.5t-44.5 22t-33 37.5t-9.5 58q0 55 43 88.5t107 37.5v65h44v-65q132 -12 143 -148h-57q-10 83 -86 96v-161q83 -21 108 -37q55 -32 55 -107z
M188 280v150q-40 -4 -64 -23t-24 -52q0 -36 17.5 -49t70.5 -26zM334 125q0 37 -23.5 53.5t-78.5 30.5v-166q47 3 74.5 23.5t27.5 58.5z" />
    <glyph glyph-name="percent" unicode="%" horiz-adv-x="647" 
d="M588 132q0 -57 -25 -98t-78 -41q-105 0 -105 136q0 55 25 92t77 37q57 0 81.5 -36t24.5 -90zM524 477l-347 -492h-55l347 492h55zM268 342q0 -57 -25 -98t-78 -41q-105 0 -105 136q0 55 25 92t77 37q57 0 81.5 -36t24.5 -90zM540 131q-4 90 -57 90q-29 0 -42 -28t-13 -65
q0 -98 56 -98q31 0 44.5 30.5t11.5 70.5zM220 341q-4 90 -57 90q-29 0 -42 -28t-13 -65q0 -98 56 -98q31 0 44.5 30.5t11.5 70.5z" />
    <glyph glyph-name="ampersand" unicode="&#x26;" horiz-adv-x="408" 
d="M418 0h-73l-47 58q-56 -67 -128 -67q-63 0 -105.5 32.5t-42.5 98.5q0 48 26.5 79t81.5 63q-52 65 -52 109q0 43 29.5 70.5t76.5 27.5q49 0 79.5 -27.5t30.5 -70.5q0 -39 -23 -66.5t-64 -52.5l85 -102q12 33 15 70h52q-6 -65 -30 -114zM238 372q1 21 -14.5 35.5
t-37.5 14.5q-23 0 -38 -14t-15 -35q0 -28 33 -70l11 -12q31 19 46 37t15 44zM266 98l-105 129q-28 -16 -41.5 -25.5t-26.5 -30.5t-13 -49q0 -34 27.5 -57t64.5 -23q56 0 94 56z" />
    <glyph glyph-name="quotesingle" unicode="'" horiz-adv-x="179" 
d="M112 301h-44v170h44v-170z" />
    <glyph glyph-name="parenleft" unicode="(" horiz-adv-x="168" 
d="M175 482q-46 -75 -66 -143.5t-21 -159.5t19.5 -161.5t66.5 -149.5h-41q-49 77 -76.5 150t-26.5 161q1 89 29 167.5t73 135.5h43z" />
    <glyph glyph-name="parenright" unicode=")" horiz-adv-x="168" 
d="M137 179q1 -88 -26.5 -161t-76.5 -150h-41q46 79 66.5 149.5t19.5 161.5t-21 159.5t-66 143.5h43q45 -57 73 -135.5t29 -167.5z" />
    <glyph glyph-name="asterisk" unicode="*" horiz-adv-x="232" 
d="M216 391l-71 -25l43 -60l-27 -20l-46 63l-42 -63l-30 20l43 60l-70 25l12 32l70 -26v74h35v-74l70 26z" />
    <glyph glyph-name="plus" unicode="+" horiz-adv-x="365" 
d="M335 144h-130v-131h-45v131h-130v45h130v129h45v-129h130v-45z" />
    <glyph glyph-name="comma" unicode="," horiz-adv-x="161" 
d="M126 23q0 -55 -60 -94l-23 16q34 21 46 52q-7 -2 -14 -2q-15 0 -27 11.5t-12 27.5t12 29t30 13q22 0 35 -14.5t13 -38.5z" />
    <glyph glyph-name="hyphen" unicode="-" horiz-adv-x="252" 
d="M220 157h-188v53h188v-53z" />
    <glyph glyph-name="period" unicode="." horiz-adv-x="161" 
d="M121 35q0 -16 -12 -28t-29 -12t-28.5 11.5t-11.5 28.5t12 29t28 12t28.5 -12t12.5 -29z" />
    <glyph glyph-name="slash" unicode="/" horiz-adv-x="216" 
d="M227 482l-192 -493h-47l191 493h48z" />
    <glyph glyph-name="zero" unicode="0" horiz-adv-x="365" 
d="M337 247q0 -49 -2.5 -83t-12 -69t-26 -56t-46 -34.5t-71.5 -13.5q-87 0 -120 64.5t-33 185.5q0 227 156 227q48 0 80.5 -19t47.5 -53t21 -69t6 -80zM278 246q0 174 -95 174q-32 0 -52.5 -16t-29.5 -45.5t-12 -56t-3 -62.5q0 -44 2.5 -73.5t11.5 -61.5t29.5 -48t51.5 -16
q32 0 52 15.5t29.5 47t12.5 63t3 79.5z" />
    <glyph glyph-name="one" unicode="1" horiz-adv-x="365" 
d="M234 0h-57v335h-121v45q120 0 135 88h43v-468z" />
    <glyph glyph-name="two" unicode="2" horiz-adv-x="365" 
d="M324 342q0 -37 -10.5 -65.5t-32.5 -50.5t-39.5 -34.5t-48.5 -30.5q-8 -5 -12 -7q-96 -58 -102 -105h242v-49h-306q1 53 25.5 93.5t53.5 62.5t85 56q46 28 66.5 56t20.5 71q0 30 -26.5 54.5t-64.5 24.5q-43 0 -69 -34.5t-21 -81.5h-57q-4 78 39 122t116 44q59 0 100 -35.5
t41 -90.5z" />
    <glyph glyph-name="three" unicode="3" horiz-adv-x="365" 
d="M336 130q0 -64 -47 -101t-112 -37q-76 0 -117 40.5t-41 112.5h55q0 -50 28.5 -76.5t74.5 -26.5q40 0 69 25t29 63q0 54 -38.5 76t-93.5 14v48q28 -2 51 2t42.5 24t19.5 55q0 30 -22.5 49.5t-56.5 19.5q-48 0 -70 -29t-22 -72h-56q0 65 36.5 108t109.5 43q63 0 102 -33
t39 -87q0 -66 -67 -99q87 -20 87 -119z" />
    <glyph glyph-name="four" unicode="4" horiz-adv-x="365" 
d="M339 110h-59v-110h-57v110h-206v54l214 304h49v-309h59v-49zM223 159v222l-156 -222h156z" />
    <glyph glyph-name="five" unicode="5" horiz-adv-x="365" 
d="M335 159q0 -75 -44.5 -121t-113.5 -46q-70 0 -112.5 37.5t-42.5 96.5h56q0 -36 29 -60t68 -24q47 0 73.5 30.5t26.5 83.5q0 44 -28.5 73.5t-78.5 29.5q-24 0 -45 -11t-31 -22l-9 -12l-48 3l43 243h231v-49h-188l-26 -136q34 33 88 33q72 0 112 -43.5t40 -105.5z" />
    <glyph glyph-name="six" unicode="6" horiz-adv-x="365" 
d="M342 149q0 -69 -41.5 -113t-117.5 -44q-85 0 -122 60t-37 177q0 100 40.5 169.5t125.5 69.5q67 0 100.5 -33t36.5 -87h-54q-16 70 -79 70q-33 0 -56 -15.5t-34.5 -43.5t-17 -55.5t-7.5 -63.5q43 60 119 60q68 0 106 -42t38 -109zM281 148q0 45 -25.5 74t-72.5 29
q-40 0 -66 -30t-26 -72q0 -43 25.5 -75t65.5 -32q49 0 74 30.5t25 75.5z" />
    <glyph glyph-name="seven" unicode="7" horiz-adv-x="365" 
d="M335 412q-82 -85 -130.5 -191t-48.5 -221h-63q0 105 56.5 221.5t127.5 185.5h-245v53h303v-48z" />
    <glyph glyph-name="eight" unicode="8" horiz-adv-x="365" 
d="M341 132q0 -58 -46.5 -100t-111.5 -42q-67 0 -113 40.5t-46 97.5q0 88 78 125q-60 34 -60 97q0 49 40.5 83.5t98.5 34.5q57 0 97.5 -34.5t40.5 -83.5q0 -62 -59 -96q81 -36 81 -122zM263 344q0 31 -24 53t-56 22q-34 0 -58 -22t-24 -53t24 -53t57 -22t57 22t24 53z
M282 133q0 38 -28.5 63.5t-69.5 25.5t-69.5 -25.5t-28.5 -63.5q0 -40 25.5 -65t72.5 -25q41 0 69.5 25.5t28.5 64.5z" />
    <glyph glyph-name="nine" unicode="9" horiz-adv-x="365" 
d="M338 231q0 -100 -40.5 -169.5t-125.5 -69.5q-67 0 -100.5 33t-36.5 87h54q16 -70 79 -70q33 0 56 15.5t34.5 43.5t17 55.5t7.5 63.5q-43 -60 -119 -60q-68 0 -106 42t-38 109q0 69 41.5 113t117.5 44q85 0 122 -60t37 -177zM271 311q0 43 -25.5 75t-65.5 32
q-49 0 -74 -30.5t-25 -75.5t25.5 -74t72.5 -29q40 0 66 30t26 72z" />
    <glyph glyph-name="colon" unicode=":" horiz-adv-x="161" 
d="M121 282q0 -16 -12 -28t-29 -12t-28.5 11.5t-11.5 28.5t12 29t28 12t28.5 -12.5t12.5 -28.5zM121 35q0 -16 -12 -28t-29 -12t-28.5 11.5t-11.5 28.5t12 29t28 12t28.5 -12t12.5 -29z" />
    <glyph glyph-name="semicolon" unicode=";" horiz-adv-x="161" 
d="M121 282q0 -16 -12 -28t-29 -12t-28.5 11.5t-11.5 28.5t12 29t28 12t28.5 -12.5t12.5 -28.5zM126 23q0 -55 -60 -94l-23 16q34 21 46 52q-7 -2 -14 -2q-15 0 -27 11.5t-12 27.5t12 29t30 13q22 0 35 -14.5t13 -38.5z" />
    <glyph glyph-name="less" unicode="&#x3c;" horiz-adv-x="388" 
d="M359 -5l-330 152v40l330 152v-45l-276 -127l276 -127v-45z" />
    <glyph glyph-name="equal" unicode="=" horiz-adv-x="365" 
d="M335 208h-305v45h305v-45zM335 80h-305v45h305v-45z" />
    <glyph glyph-name="greater" unicode="&#x3e;" horiz-adv-x="388" 
d="M359 147l-330 -152v45l276 127l-276 127v45l330 -152v-40z" />
    <glyph glyph-name="question" unicode="?" horiz-adv-x="365" 
d="M316 350q0 -36 -14 -60.5t-41 -51.5q-19 -18 -28.5 -28t-19 -29t-9.5 -40v-22h-55v27q0 25 10.5 47.5t20 33.5t28.5 29q2 2 9 9.5t9.5 10.5t8.5 10t8.5 11.5t6.5 12t5 14t2.5 15t0.5 17.5q-2 36 -23 56.5t-56 20.5q-44 0 -67 -30.5t-23 -78.5h-55q-1 69 39 113.5
t106 44.5q61 0 99 -35t38 -97zM219 38q0 -19 -12 -31t-30 -12t-30 12t-12 31q0 18 12 30t30 12t30 -12t12 -30z" />
    <glyph glyph-name="at" unicode="@" horiz-adv-x="528" 
d="M497 269q0 -62 -47 -121.5t-113 -59.5q-29 0 -37 44q-43 -46 -90 -46q-50 0 -76 52t-1 118q45 122 151 122q22 0 39 -13.5t23 -26.5l5 -14l15 42h42l-60 -207q-6 -23 6.5 -31t26.5 2q25 17 48 57.5t23 82.5q0 74 -50.5 124.5t-129.5 50.5q-82 0 -143 -55t-61 -150
q0 -97 56.5 -156t145.5 -59q56 0 93.5 18t77.5 62h39q-26 -51 -84 -83.5t-128 -32.5q-105 0 -172.5 67.5t-67.5 185.5q0 108 71.5 174t173.5 66q100 0 162 -60.5t62 -152.5zM318 214q20 50 6.5 84.5t-46.5 34.5q-62 0 -95 -84q-17 -37 -7 -77.5t49 -40.5q28 0 52.5 23
t40.5 60z" />
    <glyph glyph-name="A" unicode="A" horiz-adv-x="419" 
d="M424 0h-68l-50 142h-195l-52 -142h-64l181 471h67zM286 195l-77 220l-78 -220h155z" />
    <glyph glyph-name="B" unicode="B" horiz-adv-x="443" 
d="M414 132q0 -59 -41 -95.5t-104 -36.5h-219v471h205q73 0 106.5 -33.5t33.5 -77.5q0 -80 -68 -111q43 -14 65 -41t22 -76zM333 341q0 27 -8.5 43.5t-26 23.5t-31.5 8.5t-38 1.5h-117v-149h115q50 0 78 15t28 57zM353 140q0 45 -33 60.5t-93 15.5h-115v-163h127q25 0 43 3
t35.5 11t26.5 26.5t9 46.5z" />
    <glyph glyph-name="C" unicode="C" horiz-adv-x="467" 
d="M440 178q-10 -89 -62 -139.5t-139 -50.5q-101 0 -156.5 68.5t-55.5 186.5q0 100 59 169.5t156 69.5q81 0 134 -42t60 -111h-61q-9 45 -42.5 73t-90.5 28q-73 0 -113 -56t-40 -133q0 -83 37.5 -140.5t111.5 -57.5q127 0 141 135h61z" />
    <glyph glyph-name="D" unicode="D" horiz-adv-x="456" 
d="M431 255q0 -255 -218 -255h-163v471h165q108 0 162 -60.5t54 -155.5zM368 255q0 90 -43 126.5t-126 36.5h-87v-365h94q50 0 84 16.5t50 47.5t22 63t6 75z" />
    <glyph glyph-name="E" unicode="E" horiz-adv-x="395" 
d="M371 0h-321v471h319v-53h-257v-149h240v-53h-240v-163h259v-53z" />
    <glyph glyph-name="F" unicode="F" horiz-adv-x="371" 
d="M354 418h-242v-149h212v-53h-212v-216h-62v471h304v-53z" />
    <glyph glyph-name="G" unicode="G" horiz-adv-x="491" 
d="M451 0h-39l-15 59q-63 -70 -157 -70t-153.5 71.5t-59.5 180.5q0 100 60 170.5t160 70.5q170 0 199 -155h-60q-19 54 -47 78.5t-91 24.5q-75 0 -117.5 -57t-42.5 -135q0 -84 43 -139.5t115 -55.5q68 0 109 40.5t41 111.5h-148v53h203v-248z" />
    <glyph glyph-name="H" unicode="H" horiz-adv-x="467" 
d="M416 0h-61v216h-243v-216h-62v471h62v-202h243v202h61v-471z" />
    <glyph glyph-name="I" unicode="I" horiz-adv-x="168" 
d="M115 0h-62v471h62v-471z" />
    <glyph glyph-name="J" unicode="J" horiz-adv-x="336" 
d="M285 126q0 -137 -135 -137q-73 0 -105.5 40t-29.5 126h60q-7 -114 75 -114q13 0 24 2.5t18.5 8.5t13 11.5t8.5 14.5t5.5 15.5t3 17t0.5 15v14v10.5v321h62v-345z" />
    <glyph glyph-name="K" unicode="K" horiz-adv-x="431" 
d="M433 0h-77l-167 238l-77 -73v-165h-62v471h62v-235l235 235h78l-194 -190z" />
    <glyph glyph-name="L" unicode="L" horiz-adv-x="360" 
d="M357 0h-307v471h62v-418h245v-53z" />
    <glyph glyph-name="M" unicode="M" horiz-adv-x="563" 
d="M512 0h-58v396l-146 -396h-52l-146 400v-400h-58v471h84l145 -396l146 396h85v-471z" />
    <glyph glyph-name="N" unicode="N" horiz-adv-x="467" 
d="M417 0h-65l-244 380v-380h-58v471h64l246 -382v382h57v-471z" />
    <glyph glyph-name="O" unicode="O" horiz-adv-x="492" 
d="M468 237q0 -105 -61.5 -176.5t-159.5 -71.5q-101 0 -162 71t-61 177q0 105 62 176t161 71q96 0 158.5 -71.5t62.5 -175.5zM408 236q0 83 -44.5 139t-116.5 56q-74 0 -117.5 -55.5t-43.5 -139.5q0 -83 44 -139t117 -56t117 56t44 139z" />
    <glyph glyph-name="P" unicode="P" horiz-adv-x="419" 
d="M395 336q0 -78 -42 -110.5t-100 -32.5h-141v-193h-62v471h184q161 0 161 -135zM333 333q0 42 -28 64t-76 22h-117v-173h111q51 0 80.5 17.5t29.5 69.5z" />
    <glyph glyph-name="Q" unicode="Q" horiz-adv-x="492" 
d="M468 237q0 -114 -71 -187l62 -50l-32 -41l-72 59q-47 -29 -108 -29q-101 0 -162 71t-61 177q0 105 62 176t161 71q96 0 158.5 -71.5t62.5 -175.5zM408 236q0 83 -44.5 139t-116.5 56q-74 0 -117.5 -55.5t-43.5 -139.5q0 -83 44 -139t117 -56q32 0 63 13l-51 42l32 39
l62 -50q55 57 55 151z" />
    <glyph glyph-name="R" unicode="R" horiz-adv-x="443" 
d="M426 0h-69q-8 8 -10.5 22.5t-4 45.5t-3.5 48q-5 47 -25 66t-61 19h-141v-201h-62v471h217q58 0 99.5 -29.5t41.5 -87.5q0 -100 -81 -127q38 -8 51.5 -29.5t17.5 -58.5q1 -9 2.5 -32.5t3 -34t4 -27t8 -27t12.5 -18.5zM347 338q0 46 -26 63t-81 17h-128v-164h125
q53 0 81.5 19t28.5 65z" />
    <glyph glyph-name="S" unicode="S" horiz-adv-x="419" 
d="M395 124q0 -64 -53.5 -99.5t-129.5 -35.5q-79 0 -134 43.5t-54 122.5h58q-2 -53 36.5 -83t92.5 -30q56 0 89.5 20.5t33.5 62.5q0 22 -8.5 36.5t-25 23.5t-38.5 16t-52 14q-9 2 -14 3q-37 9 -53.5 14t-41.5 15.5t-35.5 23t-19 34t-8.5 50.5q0 59 48.5 93t118.5 34
q159 0 170 -149h-57q-6 45 -33.5 71.5t-76.5 26.5q-48 0 -78 -19.5t-30 -56.5q0 -10 1 -17.5t4.5 -14t5.5 -10.5t10 -8.5t11.5 -7t15.5 -6.5t17.5 -5.5t22.5 -6t25 -6.5q9 -2 37 -9t38.5 -10.5t32.5 -12t31 -17.5t21.5 -23t17 -33.5t4.5 -43.5z" />
    <glyph glyph-name="T" unicode="T" horiz-adv-x="371" 
d="M370 418h-153v-418h-62v418h-154v53h369v-53z" />
    <glyph glyph-name="U" unicode="U" horiz-adv-x="467" 
d="M419 169q0 -89 -50 -135t-139 -46q-83 0 -132.5 45.5t-49.5 129.5v308h62v-305q0 -55 31 -89.5t88 -34.5q59 0 94 30t35 95v304h61v-302z" />
    <glyph glyph-name="V" unicode="V" horiz-adv-x="395" 
d="M397 471l-164 -471h-70l-164 471h67l132 -408l134 408h65z" />
    <glyph glyph-name="W" unicode="W" horiz-adv-x="599" 
d="M591 471l-123 -471h-64l-107 396l-107 -396h-64l-118 471h63l91 -394l104 394h66l104 -396l94 396h61z" />
    <glyph glyph-name="X" unicode="X" horiz-adv-x="395" 
d="M396 0h-75l-123 195l-128 -195h-70l161 242l-152 229h73l115 -184l122 184h68l-154 -229z" />
    <glyph glyph-name="Y" unicode="Y" horiz-adv-x="419" 
d="M418 471l-177 -279v-192h-62v192l-178 279h73l139 -224l136 224h69z" />
    <glyph glyph-name="Z" unicode="Z" horiz-adv-x="395" 
d="M381 0h-366v53l288 365h-267v53h337v-53l-287 -365h295v-53z" />
    <glyph glyph-name="bracketleft" unicode="[" horiz-adv-x="168" 
d="M168 -131h-121v613h121v-44h-70v-524h70v-45z" />
    <glyph glyph-name="backslash" unicode="\" horiz-adv-x="216" 
d="M227 -11h-48l-191 493h47z" />
    <glyph glyph-name="bracketright" unicode="]" horiz-adv-x="168" 
d="M121 -131h-121v45h70v524h-70v44h121v-613z" />
    <glyph glyph-name="asciicircum" unicode="^" horiz-adv-x="388" 
d="M356 174h-45l-118 238l-115 -238h-46l141 286h42z" />
    <glyph glyph-name="underscore" unicode="_" horiz-adv-x="365" 
d="M365 -94h-365v45h365v-45z" />
    <glyph glyph-name="grave" unicode="`" horiz-adv-x="144" 
d="M112 388h-42l-85 94h71z" />
    <glyph glyph-name="a" unicode="a" horiz-adv-x="347" 
d="M338 0q-17 -8 -36.5 -8.5t-35 12.5t-13.5 41q-31 -30 -56 -41.5t-63 -11.5q-55 0 -82 26t-27 71q0 23 7.5 41t18 28t29 18t33 11.5t37.5 7.5q9 2 24.5 4t22.5 3.5t17.5 4t15.5 5.5t10 8t7 11.5t2 15.5q0 53 -75 53q-44 0 -62 -16.5t-20 -48.5h-56q1 50 36 81.5t102 31.5
q131 0 131 -89v-192q0 -19 6.5 -23.5t26.5 1.5v-45zM248 122v53q-12 -6 -25 -10t-21 -5.5t-26 -3.5t-24 -3q-32 -5 -52.5 -20.5t-18.5 -40.5q4 -50 73 -50q36 0 65 23t29 57z" />
    <glyph glyph-name="b" unicode="b" horiz-adv-x="383" 
d="M361 179q0 -56 -15.5 -95.5t-40.5 -58.5t-48.5 -26.5t-47.5 -7.5q-34 0 -61.5 14t-38.5 28l-11 14v-47h-55v471h55v-179q32 57 109 57q69 0 111.5 -49.5t42.5 -120.5zM302 179q0 48 -27 84t-71 36q-55 0 -81.5 -35.5t-26.5 -92.5q0 -55 26 -92t82 -37q51 0 74.5 40
t23.5 97z" />
    <glyph glyph-name="c" unicode="c" horiz-adv-x="347" 
d="M327 125q-9 -63 -47 -98t-99 -35q-76 0 -116.5 48.5t-40.5 131.5q0 78 41.5 127.5t115.5 49.5q67 0 104 -33t39 -84h-55q-13 68 -87 68q-50 0 -75.5 -36.5t-25.5 -90.5q0 -55 23.5 -93t74.5 -38q39 0 63 22.5t29 60.5h56z" />
    <glyph glyph-name="d" unicode="d" horiz-adv-x="383" 
d="M340 0h-55v47q-1 -2 -3.5 -6t-11.5 -13.5t-20.5 -17t-31.5 -13.5t-44 -6q-23 0 -47 8.5t-49 28t-40.5 59t-15.5 92.5q0 71 42.5 120.5t111.5 49.5q77 0 109 -57v179h55v-471zM287 171q0 57 -26 92.5t-81 35.5q-45 0 -72 -36t-27 -84q0 -58 23.5 -97.5t74.5 -39.5
q56 0 82 37t26 92z" />
    <glyph glyph-name="e" unicode="e" horiz-adv-x="347" 
d="M332 154h-251q-3 -43 24.5 -77.5t77.5 -34.5q76 0 89 66h54q-26 -116 -145 -116q-71 0 -114.5 49t-43.5 124q0 79 41 131.5t119 52.5q74 0 113.5 -58.5t35.5 -136.5zM273 203q0 41 -28 69.5t-68 28.5q-39 0 -67 -29t-28 -69h191z" />
    <glyph glyph-name="f" unicode="f" horiz-adv-x="191" 
d="M192 423q-22 10 -47.5 3t-25.5 -34v-51h64v-49h-64v-292h-55v292h-56l-1 49h57v51q0 34 17 55t40 26t42.5 4.5t28.5 -5.5v-49z" />
    <glyph glyph-name="g" unicode="g" horiz-adv-x="371" 
d="M330 23q0 -67 -35 -114.5t-114 -47.5q-64 0 -104.5 27t-40.5 74h55q1 -26 26.5 -41t63.5 -15q97 0 97 133l1 22q-32 -65 -103 -65q-78 0 -115 51t-37 127q0 71 39.5 123t107.5 52q76 0 107 -57v49h52v-318zM275 176q0 57 -24.5 90.5t-76.5 33.5q-43 0 -68 -36.5
t-25 -88.5q0 -54 23.5 -91.5t72.5 -37.5q48 0 73 39t25 91z" />
    <glyph glyph-name="h" unicode="h" horiz-adv-x="360" 
d="M318 0h-54v235q0 23 -16.5 44t-51.5 21q-45 0 -72.5 -27.5t-27.5 -77.5v-195h-55v471h55v-183q28 61 115 61q47 0 77 -29t30 -82v-238z" />
    <glyph glyph-name="i" unicode="i" horiz-adv-x="144" 
d="M100 403h-55v68h55v-68zM100 0h-55v341h55v-341z" />
    <glyph glyph-name="j" unicode="j" horiz-adv-x="144" 
d="M100 403h-55v68h55v-68zM100 -46q0 -32 -13 -52.5t-30.5 -26t-36 -7t-29.5 4.5v49q23 -8 38.5 0t15.5 41v378h55v-387z" />
    <glyph glyph-name="k" unicode="k" horiz-adv-x="336" 
d="M336 0h-70l-115 178l-51 -49v-129h-55v471h55v-279l152 149h74l-133 -124z" />
    <glyph glyph-name="l" unicode="l" horiz-adv-x="144" 
d="M100 0h-55v471h55v-471z" />
    <glyph glyph-name="m" unicode="m" horiz-adv-x="552" 
d="M511 0h-55v216q0 45 -14 64.5t-47 19.5q-40 0 -65.5 -23t-25.5 -58v-219h-56v220q0 80 -59 80q-47 0 -70 -31t-23 -59v-210h-55v341h52v-50q40 58 111 58q73 0 90 -58q37 58 113 58q49 0 76.5 -26.5t27.5 -71.5v-251z" />
    <glyph glyph-name="n" unicode="n" horiz-adv-x="360" 
d="M318 0h-54v221q0 79 -65 79q-45 0 -74 -26t-29 -77v-197h-55v341h52v-55q32 63 120 63q49 0 77 -31.5t28 -80.5v-237z" />
    <glyph glyph-name="o" unicode="o" horiz-adv-x="371" 
d="M348 171q0 -77 -43 -128t-119 -51q-78 0 -120 50.5t-42 128.5q0 77 42.5 127.5t119.5 50.5q76 0 119 -50.5t43 -127.5zM290 171q0 56 -28.5 92.5t-76.5 36.5q-46 0 -75 -37t-29 -92q0 -56 27.5 -92.5t78.5 -36.5q46 0 74.5 37t28.5 92z" />
    <glyph glyph-name="p" unicode="p" horiz-adv-x="383" 
d="M360 162q0 -73 -40.5 -121.5t-112.5 -48.5t-109 57v-179h-55v471h55v-47q3 6 9 15.5t34.5 25t67.5 15.5q22 0 45 -8t48.5 -26.5t41.5 -58t16 -95.5zM302 162q0 57 -23.5 97.5t-74.5 40.5q-56 0 -82 -37.5t-26 -92.5q0 -57 26 -92.5t81 -35.5q45 0 72 36t27 84z" />
    <glyph glyph-name="q" unicode="q" horiz-adv-x="383" 
d="M340 -130h-55v179q-29 -57 -109 -57q-72 0 -112 51.5t-40 124.5q0 54 15.5 92t41 56.5t48 26t45.5 7.5t42.5 -6t31.5 -14t21 -16t13 -14l3 -6v47h55v-471zM287 170q0 55 -26 92.5t-82 37.5q-51 0 -74.5 -40.5t-23.5 -97.5q0 -48 27 -84t71 -36q55 0 81.5 35.5t26.5 92.5z
" />
    <glyph glyph-name="r" unicode="r" horiz-adv-x="216" 
d="M216 289q-51 5 -86.5 -27.5t-35.5 -94.5v-167h-55v341h52v-74q13 35 46.5 60.5t78.5 20.5v-59z" />
    <glyph glyph-name="s" unicode="s" horiz-adv-x="323" 
d="M304 93q0 -48 -41.5 -74.5t-97.5 -26.5q-71 0 -108 32t-37 84h55q0 -35 25.5 -50.5t62.5 -15.5q83 0 83 51q0 25 -22 36.5t-71 22.5q-23 5 -37 9t-33 12t-30 17.5t-18.5 25t-7.5 35.5q0 48 37.5 73t89.5 25q68 0 101 -28.5t33 -78.5h-54q0 30 -24.5 44t-54.5 14
q-69 0 -69 -46q0 -11 6 -19.5t21.5 -14.5t23 -8.5t28.5 -7.5q6 -2 26.5 -7t27 -6.5t22.5 -7t22 -10t16 -12.5t14 -17t7.5 -22t3.5 -29z" />
    <glyph glyph-name="t" unicode="t" horiz-adv-x="204" 
d="M184 0h-41q-46 0 -63 15t-17 61v216h-57v49h57v103h55v-103h66v-49h-66v-210q0 -20 6 -26.5t24 -6.5h36v-49z" />
    <glyph glyph-name="u" unicode="u" horiz-adv-x="360" 
d="M318 0h-51v55q-37 -63 -115 -63q-50 0 -80.5 29.5t-30.5 92.5v227h55v-231q0 -29 17.5 -48.5t49.5 -19.5q47 0 74 27.5t27 79.5v192h54v-341z" />
    <glyph glyph-name="v" unicode="v" horiz-adv-x="323" 
d="M315 341l-123 -341h-58l-125 341h62l95 -285l91 285h58z" />
    <glyph glyph-name="w" unicode="w" horiz-adv-x="490" 
d="M479 341l-106 -341h-58l-69 273l-68 -273h-59l-108 341h61l75 -282l69 282h60l71 -279l75 279h57z" />
    <glyph glyph-name="x" unicode="x" horiz-adv-x="335" 
d="M330 0h-70l-94 141l-93 -141h-67l125 180l-116 161h70l81 -118l84 118h65l-115 -157z" />
    <glyph glyph-name="y" unicode="y" horiz-adv-x="323" 
d="M318 341l-146 -388q-9 -23 -15 -36t-19 -27.5t-30 -21.5q-16 -6 -31.5 -5.5t-27.5 3.5l-12 3v53q3 -2 8.5 -4t20.5 -4.5t24 3.5q19 7 28 33l21 52l-134 339h63l98 -281l94 281h58z" />
    <glyph glyph-name="z" unicode="z" horiz-adv-x="311" 
d="M296 0h-281v43l201 249h-189v49h260v-37l-206 -255h215v-49z" />
    <glyph glyph-name="braceleft" unicode="{" horiz-adv-x="216" 
d="M200 -131h-41q-38 0 -56.5 27.5t-18.5 66.5v119q0 30 -13 47.5t-27 20.5l-13 3v45q2 0 5.5 0.5t13 5t16.5 12.5t12.5 25t5.5 41v111q0 40 21.5 64.5t55.5 24.5h39v-39h-28q-36 0 -36 -59v-116q0 -22 -6 -39.5t-14.5 -27t-16.5 -15.5t-14 -8l-6 -1q2 0 6 -1.5t14 -8
t17.5 -16t14 -29.5t6.5 -45v-111v-15.5t7.5 -25.5t23.5 -16h32v-40z" />
    <glyph glyph-name="bar" unicode="|" horiz-adv-x="144" 
d="M94 -11h-44v493h44v-493z" />
    <glyph glyph-name="braceright" unicode="}" horiz-adv-x="216" 
d="M185 153q-2 0 -5.5 -1t-13 -5t-16.5 -11t-12.5 -21t-5.5 -33v-119q0 -39 -18 -66.5t-56 -27.5h-42v40h32q16 0 23.5 14t7.5 29v14v111q0 25 6 45t14.5 30t17 16t14.5 8l6 1q-2 0 -6 1.5t-14 8t-17.5 15.5t-13.5 26.5t-6 39.5v116q0 59 -36 59h-28v39h39q34 0 55.5 -24.5
t21.5 -64.5v-111q0 -37 13 -58t27 -24l13 -2v-45z" />
    <glyph glyph-name="asciitilde" unicode="~" horiz-adv-x="388" 
d="M343 178q-12 -18 -20.5 -28t-24.5 -19.5t-35 -9.5q-28 0 -66 22q-48 25 -75 25q-32 0 -54 -50l-23 33q29 57 80 57q24 0 72 -21q6 -3 17.5 -8.5t18.5 -9t16 -6.5t15 -3q26 0 56 51z" />
    <glyph glyph-name="cent" unicode="&#xa2;" horiz-adv-x="370" 
 />
    <glyph glyph-name="sterling" unicode="&#xa3;" horiz-adv-x="417" 
 />
    <glyph glyph-name="currency" unicode="&#xa4;" horiz-adv-x="410" 
d="M206 356q-46 0 -78 -33q-32 -37 -32 -78q0 -46 31 -80q31 -33 79 -33q46 0 77 33q31 31 31 80q0 46 -31 78.5t-77 32.5zM4 80l72 71q-30 41 -30 94q0 56 30 92l-72 73l37 35l71 -71q40 29 94 29q58 0 92 -29l73 71l35 -35l-71 -73q29 -40 29 -92q0 -54 -29 -94l71 -71
l-35 -37l-73 72q-15 -12 -41 -21q-25 -9 -51 -9q-54 0 -94 30l-71 -72z" />
    <glyph glyph-name="yen" unicode="&#xa5;" horiz-adv-x="509" 
 />
    <glyph glyph-name="copyright" unicode="&#xa9;" horiz-adv-x="554" 
d="M524 236q0 -103 -72 -175t-175 -72t-175 72t-72 175q0 102 72 174t175 72t175 -72t72 -174zM492 236q0 92 -61.5 155t-152.5 63q-93 0 -154.5 -62.5t-61.5 -155.5q0 -91 62.5 -154.5t153.5 -63.5t152.5 63.5t61.5 154.5zM419 197q-4 -54 -42.5 -86t-92.5 -32
q-72 0 -115.5 44.5t-43.5 112.5q0 69 42.5 112t111.5 43q55 0 94 -29.5t46 -85.5h-44q-8 37 -33.5 56.5t-61.5 19.5q-52 0 -81 -32t-29 -83q0 -50 31 -84.5t82 -34.5q36 0 61.5 22t30.5 57h44z" />
    <glyph glyph-name="guillemotleft" unicode="&#xab;" horiz-adv-x="311" 
d="M272 56l-37 -18l-77 140l77 140l37 -17l-46 -123zM208 21l-36 -20l-144 177l144 178l36 -20l-106 -158z" />
    <glyph glyph-name="logicalnot" unicode="&#xac;" horiz-adv-x="365" 
d="M285 58v87h-255v44h295v-131h-40z" />
    <glyph glyph-name="minus" unicode="&#xad;" horiz-adv-x="365" 
d="M335 144h-305v45h305v-45z" />
    <glyph glyph-name="registered" unicode="&#xae;" horiz-adv-x="554" 
d="M524 236q0 -103 -72 -175t-175 -72t-175 72t-72 175q0 102 72 174t175 72t175 -72t72 -174zM492 236q0 92 -61.5 155t-152.5 63q-93 0 -154.5 -62.5t-61.5 -155.5q0 -91 62.5 -154.5t153.5 -63.5t152.5 63.5t61.5 154.5zM417 90h-51l-88 125h-61v-125h-45v291h120
q105 0 105 -84q0 -61 -69 -79zM352 299q0 51 -64 51h-71v-104h52q17 0 24.5 0.5t21 3t20 7.5t12 15.5t5.5 26.5z" />
    <glyph glyph-name="degree" unicode="&#xb0;" horiz-adv-x="264" 
d="M130 447q42 0 71 -29t29 -70t-29 -70t-71 -29q-40 0 -69 28.5t-29 70.5q0 40 28.5 69.5t69.5 29.5zM130 419q-31 0 -51 -20t-20 -51q0 -29 21 -50.5t50 -21.5q30 0 51 21q22 22 22 51t-21.5 50t-51.5 21z" />
    <glyph glyph-name="paragraph" unicode="&#xb6;" horiz-adv-x="355" 
d="M307 -119h-30v662h-71v-662h-27v393q-81 0 -128 30q-51 36 -51 115q0 75 46 112q44 32 121 32h190v-20h-50v-662z" />
    <glyph glyph-name="middot" unicode="&#xb7;" horiz-adv-x="165" 
d="M83 254q15 0 25 -10.5t10 -24.5q0 -15 -10.5 -25.5t-24.5 -10.5q-16 0 -26 10t-10 26q0 15 10 25t26 10z" />
    <glyph glyph-name="middot" unicode="&#x2219;" horiz-adv-x="165" 
d="M83 254q15 0 25 -10.5t10 -24.5q0 -15 -10.5 -25.5t-24.5 -10.5q-16 0 -26 10t-10 26q0 15 10 25t26 10z" />
    <glyph glyph-name="guillemotright" unicode="&#xbb;" horiz-adv-x="311" 
d="M284 178l-144 -177l-36 20l106 157l-106 158l36 20zM154 178l-77 -140l-37 18l46 122l-46 123l37 17z" />
    <glyph glyph-name="onequarter" unicode="&#xbc;" horiz-adv-x="648" 
 />
    <glyph glyph-name="onehalf" unicode="&#xbd;" horiz-adv-x="663" 
 />
    <glyph glyph-name="threequarters" unicode="&#xbe;" horiz-adv-x="648" 
 />
    <glyph glyph-name="multiply" unicode="&#xd7;" horiz-adv-x="365" 
d="M335 46l-32 -32l-121 121l-120 -120l-32 31l120 121l-119 119l31 32l120 -119l120 120l32 -32l-120 -120z" />
    <glyph glyph-name="divide" unicode="&#xf7;" horiz-adv-x="365" 
d="M222 289q0 -15 -12 -27.5t-28 -12.5q-15 0 -27.5 12.5t-12.5 27.5q0 16 12 28t28 12t28 -12t12 -28zM335 144h-305v45h305v-45zM222 44q0 -15 -12 -27.5t-28 -12.5q-15 0 -27.5 12.5t-12.5 27.5q0 16 12 28t28 12t28 -12t12 -28z" />
    <glyph glyph-name="uni0E00" unicode="&#xe00;" horiz-adv-x="100" 
 />
    <glyph glyph-name="uni0E01" unicode="&#xe01;" horiz-adv-x="380" 
d="M294 272q0 85 -108 85q-41 0 -72 -16.5t-35 -38.5q2 -2 12.5 -10t15.5 -15t5 -16q0 -11 -13 -28t-13 -31v-202h-56v206q0 13 15.5 28t15.5 24q0 8 -21 23l-21 12q4 50 53 82t115 32q70 0 116.5 -32t46.5 -97v-278h-56v272z" />
    <glyph glyph-name="uni0E02" unicode="&#xe02;" horiz-adv-x="340" 
d="M310 112q0 -63 -41 -91t-99 -28q-57 0 -98.5 28t-41.5 91v141q0 19 11.5 32.5t25.5 19.5t25.5 13.5t11.5 15.5q0 18 -31 18h-49v48h51q45 0 65 -14.5t20 -46.5q0 -20 -11.5 -34t-25.5 -20t-25.5 -16.5t-11.5 -23.5v-126q0 -76 84 -76t84 76v281h56v-288z" />
    <glyph glyph-name="uni0E03" unicode="&#xe03;" horiz-adv-x="345" 
d="M315 112q0 -63 -41 -91t-99 -28q-57 0 -98.5 28t-41.5 91v130q0 19 12 33.5t26 21.5t26 17t12 21q0 10 -5 17l-4 6l-41 -33l-57 46l37 32l29 -23l29 23q33 2 49.5 -15t16.5 -48q0 -22 -11.5 -38t-25.5 -24.5t-25.5 -20.5t-11.5 -25v-113q0 -76 84 -76t84 76v281h56v-288z
" />
    <glyph glyph-name="uni0E04" unicode="&#xe04;" horiz-adv-x="390" 
d="M304 272q0 42 -31 63.5t-78 21.5t-78 -21.5t-31 -63.5v-41h122v-50h-122v-181h-56v278q0 64 49.5 96.5t115.5 32.5q67 0 116 -32.5t49 -96.5v-278h-56v272z" />
    <glyph glyph-name="uni0E05" unicode="&#xe05;" horiz-adv-x="390" 
d="M304 286q0 56 -43 68l-65 -54l-67 54q-43 -12 -43 -68v-55h123v-51h-123v-180h-56v291q0 47 31 78.5t83 37.5l51 -41l52 41q51 -6 82 -38t31 -78v-291h-56v286z" />
    <glyph glyph-name="uni0E06" unicode="&#xe06;" horiz-adv-x="395" 
d="M365 119q0 -64 -36 -94.5t-98 -30.5q-78 0 -140 62v-56h-56v242q0 19 12 33.5t26 21.5t26 17t12 21q0 10 -5 17l-4 6l-41 -33l-57 46l37 32l29 -23l29 23q33 2 49.5 -15t16.5 -48q0 -22 -11.5 -38t-25.5 -24.5t-25.5 -20.5t-11.5 -25v-70q0 -38 39.5 -78t95.5 -40
q38 0 60.5 19.5t22.5 59.5v277h56v-281z" />
    <glyph glyph-name="uni0E07" unicode="&#xe07;" horiz-adv-x="348" 
d="M327 257q5 -45 -1 -87.5t-24.5 -82t-58 -63.5t-95.5 -24h-46l-102 325l47 38l98 -313h12q60 0 90 57.5t24 134.5q-11 135 -151 112v50q91 14 144.5 -27.5t62.5 -119.5z" />
    <glyph glyph-name="uni0E08" unicode="&#xe08;" horiz-adv-x="359" 
d="M337 226q0 -115 -61 -174.5t-159 -53.5l-57 221l-20 31h71l50 -199q53 6 86.5 52.5t33.5 122.5q0 61 -32.5 96t-87.5 35q-94 0 -112 -68h-55q4 49 50.5 83.5t116.5 34.5q80 0 128 -47t48 -134z" />
    <glyph glyph-name="uni0E09" unicode="&#xe09;" horiz-adv-x="385" 
d="M299 46q-59 -52 -136 -52q-128 0 -128 124v94l-12 30h68v-118q0 -44 19.5 -62.5t57.5 -18.5q55 0 93 29.5t38 65.5v134q0 43 -32 64t-82 21q-87 0 -108 -57h-59q13 55 60 81t107 26q73 0 121.5 -32t48.5 -97v-278h-56v46z" />
    <glyph glyph-name="uni0E0A" unicode="&#xe0a;" horiz-adv-x="372" 
d="M351 157q0 -79 -51 -119t-132 -40l-138 2v400h56v-350l79 -2q54 -2 92 25.5t38 82.5q0 45 -28.5 73t-73.5 28h-53v50h53q41 0 66.5 22.5t22.5 70.5h55q6 -39 -12.5 -71.5t-51.5 -47.5q32 -12 55 -45t23 -79z" />
    <glyph glyph-name="uni0E0B" unicode="&#xe0b;" horiz-adv-x="381" 
d="M361 157q0 -79 -50.5 -118t-132.5 -39h-138v242q0 24 14 40t28 27.5t14 25.5q0 10 -5 17l-4 6l-41 -33l-57 46l37 32l29 -23l29 23q33 2 49.5 -15t16.5 -48q0 -21 -8.5 -37t-18.5 -24.5t-18.5 -20.5t-8.5 -26v-182h79q55 0 92.5 26.5t37.5 79.5q0 45 -28.5 73t-73.5 28
h-43v50h43q40 0 66 23t23 70h55q8 -38 -11.5 -71.5t-52.5 -47.5q33 -13 55.5 -45.5t22.5 -78.5z" />
    <glyph glyph-name="uni0E0C" unicode="&#xe0c;" horiz-adv-x="614" 
d="M584 118q0 -124 -123 -124q-72 0 -111 50v-44h-56v272q0 85 -108 85q-41 0 -72 -16.5t-35 -38.5q2 -2 12.5 -10t15.5 -15t5 -16q0 -11 -13 -28t-13 -31v-152h62v-50h-118v206q0 13 15.5 28t15.5 24q0 8 -21 23l-21 12q4 50 53 82t115 32q70 0 116.5 -32t46.5 -97v-140
q0 -34 31 -64.5t74 -30.5q73 0 73 80v277h56v-282z" />
    <glyph glyph-name="uni0E0D" unicode="&#xe0d;" horiz-adv-x="614" 
d="M584 21q0 -61 -42.5 -91.5t-105.5 -30.5h-142v51h142q40 0 66 19t26 50v17q-41 -41 -110 -41q-53 0 -88.5 27t-35.5 88v162q0 85 -108 85q-41 0 -72 -16.5t-35 -38.5q2 -2 12.5 -10t15.5 -15t5 -16q0 -11 -13 -28t-13 -31v-152h62v-50h-118v206q0 13 15.5 28t15.5 24
q0 8 -21 23l-21 12q4 50 53 82t115 32q70 0 116.5 -32t46.5 -97v-159q0 -74 79 -74q40 0 69.5 24t29.5 66v265h56v-379z" />
    <glyph glyph-name="uni0E0E" unicode="&#xe0e;" horiz-adv-x="390" 
d="M245 -92l-67 -58h-121v51h98l90 74l59 -50v347q0 85 -108 85q-42 0 -72.5 -16.5t-34.5 -38.5q2 -2 12.5 -10t15.5 -15t5 -16q0 -11 -13 -28t-13 -31v-202h-91v51h35v155q0 13 15.5 28t15.5 24q0 8 -21 23l-21 12q4 51 52.5 82.5t115.5 31.5q70 0 116.5 -32t46.5 -97v-428
h-56z" />
    <glyph glyph-name="uni0E0F" unicode="&#xe0f;" horiz-adv-x="390" 
d="M262 -101l-51 -58l-53 58l-45 -49h-91v51h66l71 72l51 -54l53 54l41 -44v343q0 85 -108 85q-42 0 -72.5 -16.5t-34.5 -38.5q2 -2 12.5 -10t15.5 -15t5 -16q0 -11 -13 -28t-13 -31v-202h-91v51h35v155q0 13 15.5 28t15.5 24q0 8 -21 23l-21 12q4 51 52.5 82.5t115.5 31.5
q70 0 116.5 -32t46.5 -97v-428h-56z" />
    <glyph glyph-name="uni0E10" unicode="&#xe10;" horiz-adv-x="359" 
d="M337 226q0 -115 -61 -174.5t-159 -53.5l-57 221l-20 31h71l50 -199q53 6 86.5 52.5t33.5 122.5q0 61 -32.5 96t-87.5 35q-94 0 -112 -68h-55q4 49 50.5 83.5t116.5 34.5q42 0 74 -13q29 14 29 36h61q0 -36 -47 -61q59 -49 59 -143zM226 -109l-52 -48l-52 48l-45 -41h-75
v51h58l63 54l51 -46l52 46l38 -37v62h56v-130h-56z" />
    <glyph glyph-name="uni0E11" unicode="&#xe11;" horiz-adv-x="400" 
d="M314 293q0 63 -36 63q-25 0 -70 -84q-38 -68 -75 -156.5t-37 -111.5v-4h-56v240q0 19 9.5 34t21 22t21 17.5t9.5 21.5q0 10 -5 17l-4 6l-41 -33l-57 46l37 32l29 -23l29 23q33 2 49.5 -15t16.5 -48q0 -26 -14.5 -44.5t-29.5 -33t-15 -30.5v-85q21 66 71 151
q30 52 56.5 80t56.5 28q47 0 68.5 -29.5t21.5 -74.5v-302h-56v293z" />
    <glyph glyph-name="uni0E12" unicode="&#xe12;" horiz-adv-x="629" 
d="M599 118q0 -124 -123 -124q-72 0 -111 50v-44h-56v330l-54 -56l-85 75q-44 -10 -71.5 -50.5t-27.5 -95.5q0 -82 47.5 -126.5t120.5 -19.5v-55q-106 -23 -165 37t-59 163q0 83 46.5 136t124.5 68l68 -61l55 55h56v-262q0 -34 31 -64.5t74 -30.5q73 0 73 80v277h56v-282z
" />
    <glyph glyph-name="uni0E13" unicode="&#xe13;" horiz-adv-x="614" 
d="M528 44q-39 -50 -111 -50q-123 0 -123 124v154q0 85 -108 85q-41 0 -72 -16.5t-35 -38.5q2 -2 12.5 -10t15.5 -15t5 -16q0 -11 -13 -28t-13 -31v-152h62v-50h-118v206q0 13 15.5 28t15.5 24q0 8 -21 23l-21 12q4 50 53 82t115 32q70 0 116.5 -32t46.5 -97v-155
q0 -80 73 -80q43 0 74 30.5t31 64.5v262h56v-400h-56v44z" />
    <glyph glyph-name="uni0E14" unicode="&#xe14;" horiz-adv-x="393" 
d="M307 350h-106q-56 0 -93 -45.5t-37 -105.5q0 -82 46 -124.5t120 -17.5v-55q-106 -23 -164 35t-58 162q0 85 54 143t136 58h158v-400h-56v350z" />
    <glyph glyph-name="uni0E15" unicode="&#xe15;" horiz-adv-x="395" 
d="M309 333l-60 -59l-79 75q-44 -10 -71.5 -50.5t-27.5 -95.5q0 -82 47.5 -126.5t120.5 -19.5v-55q-106 -23 -165 37t-59 163q0 83 46.5 136t124.5 68l63 -61l60 55h56v-400h-56v333z" />
    <glyph glyph-name="uni0E16" unicode="&#xe16;" horiz-adv-x="380" 
d="M294 272q0 85 -108 85q-41 0 -72 -16.5t-35 -38.5q2 -2 12.5 -10t15.5 -15t5 -16q0 -11 -13 -28t-13 -31v-152h62v-50h-118v206q0 13 15.5 28t15.5 24q0 8 -21 23l-21 12q4 50 53 82t115 32q70 0 116.5 -32t46.5 -97v-278h-56v272z" />
    <glyph glyph-name="uni0E17" unicode="&#xe17;" horiz-adv-x="390" 
d="M304 277q0 79 -83 79q-55 0 -95 -40t-40 -78v-238h-56v400h56v-56q62 62 140 62q60 0 97 -31t37 -94v-281h-56v277z" />
    <glyph glyph-name="uni0E18" unicode="&#xe18;" horiz-adv-x="372" 
d="M352 136q0 -136 -154 -136h-168v208h56v-158h104q51 0 78.5 17t27.5 68q0 41 -25 58t-72 24q-7 1 -27 2.5t-29 2.5t-26.5 3.5t-26.5 5.5t-23 7.5t-21 11t-14 15t-10 19.5t-2 25q2 46 47 72t111 26q69 0 115 -26t52 -81h-57q-5 30 -37.5 43.5t-72.5 13.5q-41 0 -71.5 -13
t-30.5 -35q0 -21 29.5 -28.5t83.5 -11.5q12 -1 17 -1q63 -4 104.5 -35.5t41.5 -96.5z" />
    <glyph glyph-name="uni0E19" unicode="&#xe19;" horiz-adv-x="390" 
d="M304 56q-62 -62 -140 -62q-62 0 -98 30.5t-36 94.5v281h56v-277q0 -40 22.5 -59.5t60.5 -19.5q55 0 95 40t40 78v238h56v-400h-56v56z" />
    <glyph glyph-name="uni0E1A" unicode="&#xe1a;" horiz-adv-x="390" 
d="M360 121q0 -64 -49.5 -96t-115.5 -32t-115.5 32t-49.5 96v279h56v-272q0 -43 31.5 -64t77.5 -21t77.5 21t31.5 64v272h56v-279z" />
    <glyph glyph-name="uni0E1B" unicode="&#xe1b;" horiz-adv-x="390" 
d="M360 121q0 -64 -49.5 -96t-115.5 -32t-115.5 32t-49.5 96v279h56v-272q0 -43 31.5 -64t77.5 -21t77.5 21t31.5 64v362h56v-369z" />
    <glyph glyph-name="uni0E1C" unicode="&#xe1c;" horiz-adv-x="524" 
d="M355 0l-93 299l-93 -299h-48l-116 400h127v-50h-55l69 -250l92 300h48l92 -300l84 300h57l-116 -400h-48z" />
    <glyph glyph-name="uni0E1D" unicode="&#xe1d;" horiz-adv-x="524" 
d="M355 0l-93 299l-93 -299h-48l-116 400h127v-50h-55l69 -250l92 300h48l92 -300l109 390h57l-141 -490h-48z" />
    <glyph glyph-name="uni0E1E" unicode="&#xe1e;" horiz-adv-x="524" 
d="M355 0l-93 299l-93 -299h-48l-116 400h57l84 -300l92 300h48l92 -300l84 300h57l-116 -400h-48z" />
    <glyph glyph-name="uni0E1F" unicode="&#xe1f;" horiz-adv-x="524" 
d="M355 0l-93 299l-93 -299h-48l-116 400h57l84 -300l92 300h48l92 -300l109 390h57l-141 -490h-48z" />
    <glyph glyph-name="uni0E20" unicode="&#xe20;" horiz-adv-x="390" 
d="M304 272q0 85 -108 85q-42 0 -72.5 -16.5t-34.5 -38.5q2 -2 12.5 -10t15.5 -15t5 -16q0 -11 -13 -28t-13 -31v-202h-91v51h35v155q0 13 15.5 28t15.5 24q0 8 -21 23l-21 12q4 51 52.5 82.5t115.5 31.5q70 0 116.5 -32t46.5 -97v-278h-56v272z" />
    <glyph glyph-name="uni0E21" unicode="&#xe21;" horiz-adv-x="390" 
d="M360 119q0 -64 -37 -94.5t-97 -30.5q-84 0 -140 62v-56h-56v400h56v-238q0 -38 40 -78t95 -40q83 0 83 79v277h56v-281z" />
    <glyph glyph-name="uni0E22" unicode="&#xe22;" horiz-adv-x="395" 
d="M187 -3q-170 -5 -170 125q0 42 25.5 70t49.5 31q-22 3 -43.5 24.5t-21.5 57.5q0 66 70 90q42 14 98 5v-51q-47 9 -79.5 -2.5t-32.5 -42.5q0 -51 88 -51h138v147h56v-400zM182 203q-53 0 -80.5 -21.5t-27.5 -57.5q0 -82 124 -77l111 3v153h-127z" />
    <glyph glyph-name="uni0E23" unicode="&#xe23;" horiz-adv-x="357" 
d="M342 126q0 -133 -167 -133q-161 0 -165 149h57q0 -99 108 -99q111 0 111 82q0 37 -24 51.5t-73 21.5q-11 2 -40 6t-41 6.5t-33 9.5t-30 16t-17 25t-8 37q0 49 45 79t108 30q65 0 113 -29.5t50 -88.5h-56q-3 33 -35.5 50.5t-73.5 17.5q-37 0 -66 -15.5t-29 -40.5
q0 -26 31.5 -36.5t88.5 -15.5q67 -7 106.5 -33t39.5 -90z" />
    <glyph glyph-name="uni0E24" unicode="&#xe24;" horiz-adv-x="380" 
d="M294 272q0 85 -108 85q-41 0 -72 -16.5t-35 -38.5q2 -2 12.5 -10t15.5 -15t5 -16q0 -11 -13 -28t-13 -31v-152h62v-50h-118v206q0 13 15.5 28t15.5 24q0 8 -21 23l-21 12q4 50 53 82t115 32q70 0 116.5 -32t46.5 -97v-398h-56v396v-4z" />
    <glyph glyph-name="uni0E25" unicode="&#xe25;" horiz-adv-x="388" 
d="M302 220q-7 -4 -15.5 -7.5t-19 -6.5t-18.5 -4.5t-22 -3.5t-20.5 -2.5t-23 -2.5t-21.5 -2q-91 -9 -91 -77q0 -28 14 -44.5t37.5 -20.5t45.5 -2.5t47 7.5v-53q-36 -7 -71.5 -5t-64.5 10.5t-46.5 36t-17.5 71.5q0 105 124 124q12 2 38 3.5t43.5 4t37.5 8t30.5 16.5t10.5 27
q0 28 -29 44t-74 16q-42 0 -75 -18.5t-37 -49.5h-57q9 60 57 89t113 29q67 0 114 -28t47 -91v-288h-56v220z" />
    <glyph glyph-name="uni0E26" unicode="&#xe26;" horiz-adv-x="390" 
d="M304 272q0 85 -108 85q-42 0 -72.5 -16.5t-34.5 -38.5q2 -2 12.5 -10t15.5 -15t5 -16q0 -11 -13 -28t-13 -31v-202h-91v51h35v155q0 13 15.5 28t15.5 24q0 8 -21 23l-21 12q4 51 52.5 82.5t115.5 31.5q70 0 116.5 -32t46.5 -97v-398h-56v392z" />
    <glyph glyph-name="uni0E27" unicode="&#xe27;" horiz-adv-x="371" 
d="M356 200q0 -107 -48 -157t-126 -50q-70 0 -112 36.5t-55 99.5h59q10 -43 39.5 -64.5t68.5 -21.5q118 0 118 157t-118 157q-39 0 -68.5 -21.5t-39.5 -64.5h-59q13 63 55 99.5t112 36.5q78 0 126 -50t48 -157z" />
    <glyph glyph-name="uni0E28" unicode="&#xe28;" horiz-adv-x="390" 
d="M304 272q0 42 -31 63.5t-78 21.5t-78 -21.5t-31 -63.5v-41h122v-50h-122v-181h-56v278q0 64 49.5 96.5t115.5 32.5q29 0 65 -9q24 8 24 32h61q0 -31 -36 -55q51 -33 51 -97v-278h-56v272z" />
    <glyph glyph-name="uni0E29" unicode="&#xe29;" horiz-adv-x="395" 
d="M360 121q0 -64 -49.5 -96t-115.5 -32t-115.5 32t-49.5 96v279h56v-272q0 -43 31.5 -64t77.5 -21t77.5 21t31.5 64v78h-124v77h56v-27h68v144h56v-144h30v-50h-30v-85z" />
    <glyph glyph-name="uni0E2A" unicode="&#xe2a;" horiz-adv-x="388" 
d="M302 220q-7 -4 -15.5 -7.5t-19 -6.5t-18.5 -4.5t-22 -3.5t-20.5 -2.5t-23 -2.5t-21.5 -2q-91 -9 -91 -77q0 -90 144 -60v-53q-36 -7 -71.5 -5t-64.5 10.5t-46.5 36t-17.5 71.5q0 105 124 124q12 2 38 3.5t43.5 4t37.5 8t30.5 16.5t10.5 27q0 28 -29 44t-74 16
q-42 0 -75 -18.5t-37 -49.5h-57q9 60 57 89t113 29q33 0 67 -8q22 8 22 31h61q0 -28 -33 -53q44 -33 44 -89v-288h-56v220z" />
    <glyph glyph-name="uni0E2B" unicode="&#xe2b;" horiz-adv-x="390" 
d="M150 400h190v-50h-190v50zM304 206q0 79 -83 79q-52 0 -93.5 -39t-41.5 -78v-168h-56v400h56v-128q59 63 140 63q60 0 97 -30.5t37 -93.5v-211h-56v206z" />
    <glyph glyph-name="uni0E2C" unicode="&#xe2c;" horiz-adv-x="524" 
d="M544 490q-11 -46 -32 -69t-66 -27q64 -26 42 -98l-85 -296h-48l-93 299l-93 -299h-48l-116 400h57l84 -300l92 300h48l92 -300l58 207q7 29 -10 49t-49 20h-36v50h56q41 0 62 14.5t28 49.5h57z" />
    <glyph glyph-name="uni0E2D" unicode="&#xe2d;" horiz-adv-x="412" 
d="M397 200q0 -104 -53 -155.5t-138 -51.5q-84 0 -137.5 52t-53.5 155q0 29 6 61h131v-51h-81v-10q0 -78 36.5 -117.5t98.5 -39.5t98.5 39.5t36.5 117.5t-36.5 117.5t-98.5 39.5q-86 0 -116 -68h-62q16 51 60.5 84.5t117.5 33.5q85 0 138 -51.5t53 -155.5z" />
    <glyph glyph-name="uni0E2E" unicode="&#xe2e;" horiz-adv-x="412" 
d="M397 200q0 -104 -53 -155.5t-138 -51.5q-84 0 -137.5 52t-53.5 155q0 29 6 61h131v-51h-81v-10q0 -78 36.5 -117.5t98.5 -39.5t98.5 39.5t36.5 117.5t-36.5 117.5t-98.5 39.5q-86 0 -116 -68h-62q16 51 60.5 84.5t117.5 33.5q38 0 68 -10q23 10 23 33h61q0 -36 -37 -55
q76 -52 76 -175z" />
    <glyph glyph-name="uni0E2F" unicode="&#xe2f;" horiz-adv-x="353" 
d="M268 292q-20 -26 -58 -46t-82 -20q-45 0 -79 24.5t-34 69.5q0 36 29.5 59t66.5 24.5t70 -8.5v-55q-33 21 -72 14.5t-39 -35.5q0 -20 17.5 -31.5t41.5 -11.5q56 0 92 34.5t46 91.5h56v-402h-55v292z" />
    <glyph glyph-name="uni0E30" unicode="&#xe30;" horiz-adv-x="190" 
d="M168 272h-143v78h56v-34h87v-44zM168 50h-143v78h56v-34h87v-44z" />
    <glyph glyph-name="uni0E31" unicode="&#xe31;" 
d="M83 450h-275v78h56v-34h219v-44z" />
    <glyph glyph-name="uni0E32" unicode="&#xe32;" horiz-adv-x="205" 
d="M175 0h-56v300q0 33 -32.5 45t-81.5 3v51q69 11 119.5 -10t50.5 -78v-311z" />
    <glyph glyph-name="uni0E33" unicode="&#xe33;" horiz-adv-x="205" 
d="M-2 498q0 -23 -16 -37.5t-41 -14.5t-41 14.5t-16 37.5t16 37.5t41 14.5t41 -14.5t16 -37.5zM175 0h-56v300q0 33 -32.5 45t-81.5 3v51q69 11 119.5 -10t50.5 -78v-311zM-35 498q0 9 -7 15.5t-17 6.5t-17 -6.5t-7 -15.5t7 -15.5t17 -6.5t17 6.5t7 15.5z" />
    <glyph glyph-name="uni0E34" unicode="&#xe34;" 
d="M-30 450h-295v44h295v-44z" />
    <glyph glyph-name="uni0E35" unicode="&#xe35;" 
d="M-30 450h-295v44h239v51h56v-95z" />
    <glyph glyph-name="uni0E36" unicode="&#xe36;" 
d="M-1 500q0 -21 -16 -35.5t-40 -14.5h-268v44h210v6q0 21 16.5 35.5t41.5 14.5q24 0 40 -14.5t16 -35.5zM-34 500q0 21 -25 21q-10 0 -16.5 -6t-6.5 -15q0 -10 6.5 -16t16.5 -6q25 0 25 22z" />
    <glyph glyph-name="uni0E37" unicode="&#xe37;" 
d="M-30 450h-295v44h153v51h56v-51h30v51h56v-95z" />
    <glyph glyph-name="uni0E38" unicode="&#xe38;" 
d="M-30 -160h-56v76h-30v44h86v-120z" />
    <glyph glyph-name="uni0E39" unicode="&#xe39;" 
d="M-30 -104q0 -31 -24.5 -48.5t-64.5 -17.5q-42 0 -65.5 17t-23.5 49v20h-20v44h76v-61q0 -26 33 -26t33 26v61h56v-64z" />
    <glyph glyph-name="uni0E3A" unicode="&#xe3a;" 
d="M-17 -81q0 -17 -12 -29t-29 -12t-29 12t-12 29t12 29t29 12t29 -12t12 -29z" />
    <glyph glyph-name="uni0E3F" unicode="&#xe3f;" horiz-adv-x="443" 
d="M414 132q0 -59 -41 -95.5t-104 -36.5h-25v-75h-44v75h-150v471h150v75h44v-75h11q73 0 106.5 -33.5t33.5 -77.5q0 -80 -68 -111q43 -14 65 -41t22 -76zM333 341q0 46 -23.5 61t-65.5 16v-149q89 5 89 72zM200 269v149h-88v-149h88zM353 140q0 42 -28.5 58t-80.5 18v-163
q51 1 80 18t29 69zM200 53v163h-88v-163h88z" />
    <glyph glyph-name="uni0E40" unicode="&#xe40;" horiz-adv-x="156" 
d="M106 0h-56v400h56v-400z" />
    <glyph glyph-name="uni0E41" unicode="&#xe41;" horiz-adv-x="272" 
d="M222 0h-56v400h56v-400zM106 0h-56v400h56v-400z" />
    <glyph glyph-name="uni0E42" unicode="&#xe42;" horiz-adv-x="176" 
d="M231 568l-123 2q-38 0 -38 -13q0 -11 23 -31t23 -48v-478h-56v474q0 24 -23 46.5t-23 44.5q0 24 21.5 40t62.5 15l133 -2v-50z" />
    <glyph glyph-name="uni0E43" unicode="&#xe43;" horiz-adv-x="176" 
d="M163 553q0 -21 -23.5 -44t-23.5 -47v-462h-56v466q0 24 11.5 38.5t23 24t11.5 22.5q0 29 -45 29q-28 0 -41 -13.5t-11 -37.5h-57q-4 44 25.5 72.5t81.5 28.5q50 0 77 -20.5t27 -56.5z" />
    <glyph glyph-name="uni0E44" unicode="&#xe44;" horiz-adv-x="176" 
d="M144 564q1 -14 -13.5 -32.5t-14.5 -32.5v-499h-56v502q0 18 14.5 33t14.5 20q0 7 -22 7h-12l-43 -26l-91 48l42 35l48 -28l36 21h24q72 0 73 -48z" />
    <glyph glyph-name="uni0E45" unicode="&#xe45;" horiz-adv-x="205" 
d="M175 -120h-56v420q0 33 -32.5 45t-81.5 3v51q69 11 119.5 -10t50.5 -78v-431z" />
    <glyph glyph-name="uni0E46" unicode="&#xe46;" horiz-adv-x="355" 
d="M325 -120h-56v452l-58 -56l-82 73q-24 -2 -40.5 -16t-16.5 -35q0 -26 23 -37.5t52 -6.5v-53q-60 -4 -96 21.5t-36 75.5q0 43 37.5 72.5t97.5 29.5l61 -53l58 53h56v-520z" />
    <glyph glyph-name="uni0E47" unicode="&#xe47;" 
d="M-44 542h-193q-53 0 -53 -30q0 -5 2 -10t4 -7l3 -2h40l85 36l96 -39v-46l-95 40l-79 -34h-69q-34 21 -34 62q0 32 26.5 53t73.5 21h193v-44z" />
    <glyph glyph-name="uni0E48" unicode="&#xe48;" 
d="M-30 575h-56v75h56v-75z" />
    <glyph glyph-name="uni0E49" unicode="&#xe49;" 
d="M19 575h-148v17q0 23 -24 23h-17v40h31q51 0 51 -40h107v-40z" />
    <glyph glyph-name="uni0E4A" unicode="&#xe4a;" 
d="M74 575h-84v38q0 24 -22 24h-7l-42 -26l-43 26h-4q-24 0 -22 -24v-2h27v-36h-69v42q0 28 18.5 43.5t48.5 15.5h6l39 -24l39 24h6q30 0 48.5 -15.5t18.5 -43.5v-2h42v-40z" />
    <glyph glyph-name="uni0E4B" unicode="&#xe4b;" 
d="M8 613h-43v-38h-46v38h-43v33h43v38h46v-38h43v-33z" />
    <glyph glyph-name="uni0E4C" unicode="&#xe4c;" 
d="M0 581h-44q-14 0 -23 -8t-9 -20v-9h-50v20q0 29 19 45.5t47 16.5h60v-45z" />
    <glyph glyph-name="uni0E4D" unicode="&#xe4d;" 
d="M-2 498q0 -23 -16 -37.5t-41 -14.5t-41 14.5t-16 37.5t16 37.5t41 14.5t41 -14.5t16 -37.5zM-35 498q0 9 -7 15.5t-17 6.5t-17 -6.5t-7 -15.5t7 -15.5t17 -6.5t17 6.5t7 15.5z" />
    <glyph glyph-name="uni0E4E" unicode="&#xe4e;" 
d="M17 653q-55 6 -100.5 -4t-45.5 -35q0 -7 4.5 -11.5t15.5 -6.5t17 -2h22v-46q-47 6 -85 -5.5t-38 -32.5q0 -14 24 -14q25 0 57 16l24 -40q-51 -27 -96 -22q-28 3 -44.5 18.5t-17.5 35.5q-1 19 11.5 36.5t32.5 26.5q16 10 40 12q-21 11 -21 36q0 20 17.5 40.5t45.5 31.5
q46 18 137 15v-49z" />
    <glyph glyph-name="uni0E4F" unicode="&#xe4f;" horiz-adv-x="470" 
d="M440 200q0 -85 -60 -145t-145 -60t-145 60t-60 145t60 145t145 60t145 -60t60 -145zM410 200q0 72 -51.5 123.5t-123.5 51.5t-123.5 -51.5t-51.5 -123.5t51.5 -123.5t123.5 -51.5t123.5 51.5t51.5 123.5zM360 200q0 -52 -36.5 -88.5t-88.5 -36.5t-88.5 36.5t-36.5 88.5
t36.5 88.5t88.5 36.5t88.5 -36.5t36.5 -88.5z" />
    <glyph glyph-name="uni0E50" unicode="&#xe50;" horiz-adv-x="378" 
d="M358 150q0 -66 -47 -111t-122 -45t-122 45t-47 111t47 111t122 45t122 -45t47 -111zM303 150q0 45 -32 76t-83 31t-83 -31t-32 -76t32 -76t83 -31t83 31t32 76z" />
    <glyph glyph-name="uni0E51" unicode="&#xe51;" horiz-adv-x="402" 
d="M382 152q0 -75 -62.5 -127.5t-147.5 -65.5l-25 44q74 10 126.5 51.5t52.5 97.5q0 47 -35.5 76t-92.5 29q-53 0 -87.5 -27t-34.5 -70q0 -26 16 -46t41 -25q-15 17 -15 46t23 50.5t55 21.5t55 -21.5t23 -50.5q0 -42 -37 -70.5t-90 -28.5q-56 0 -91.5 35.5t-35.5 88.5
q0 65 50.5 105.5t126.5 40.5q84 0 134.5 -41.5t50.5 -112.5zM228 134q0 14 -9 23t-23 9t-23 -9t-9 -23t9 -23t23 -9t23 9t9 23z" />
    <glyph glyph-name="uni0E52" unicode="&#xe52;" horiz-adv-x="544" 
d="M513 92q0 -40 -26 -66t-68 -26h-295q-42 0 -68 26t-26 66v230q0 35 -57 39l25 48q88 -10 88 -74v-238q0 -20 10.5 -33.5t30.5 -13.5h289q20 0 30.5 13.5t10.5 33.5v111q0 49 -51 49q-19 0 -33.5 -11t-14.5 -27v-132h-56v133q0 18 -17.5 27.5t-39.5 9.5q-27 0 -45 -12
t-18 -35q5 1 15 1q30 0 51 -19t21 -47t-21 -47t-51 -19t-50.5 19t-20.5 47v63q0 46 34.5 72.5t84.5 26.5q53 0 86 -30q27 30 78 30q47 0 75.5 -25t28.5 -69v-121zM224 145q0 11 -8 19t-19 8q-10 0 -18 -8t-8 -19t7.5 -19t18.5 -8t19 8t8 19z" />
    <glyph glyph-name="uni0E53" unicode="&#xe53;" horiz-adv-x="467" 
d="M437 0h-56v204q0 26 -15 40t-39 14q-23 0 -39 -12t-16 -32v-214h-56v216q0 21 -19 31.5t-43 10.5q-30 0 -49 -15.5t-19 -39.5v-69q10 3 22 3q32 0 55 -21t23 -50q0 -30 -22.5 -50.5t-55.5 -20.5t-55.5 20.5t-22.5 50.5v136q0 50 36.5 77.5t87.5 27.5q58 0 91 -35
q33 35 83 35q48 0 78.5 -25.5t30.5 -72.5v-209zM141 66q0 13 -9.5 22.5t-22.5 9.5t-22.5 -9.5t-9.5 -22.5q0 -14 9 -23.5t23 -9.5t23 9.5t9 23.5z" />
    <glyph glyph-name="uni0E54" unicode="&#xe54;" horiz-adv-x="432" 
d="M432 412q1 -64 -33 -111t-91 -50q-24 -1 -61 1.5t-57 2.5q-49 1 -82 -28.5t-32 -78.5q1 -48 34 -75.5t77 -27.5q45 0 74 13q-15 3 -40 26.5t-25 57.5q0 30 22.5 51.5t52.5 21.5q31 0 52 -20.5t21 -50.5q0 -39 -36 -59q14 -12 56.5 -19.5t61.5 -27.5l-32 -41
q-42 21 -79 21q-17 0 -57 -11.5t-75 -11.5q-67 0 -114.5 39t-48.5 114q-1 72 48 115.5t122 42.5q21 0 53.5 -2t60.5 -1q31 1 51 34.5t21 74.5h56zM301 143q0 13 -8.5 22.5t-21.5 9.5t-22 -9.5t-9 -22.5q0 -12 9 -21t22 -9t21.5 9t8.5 21z" />
    <glyph glyph-name="uni0E55" unicode="&#xe55;" horiz-adv-x="432" 
d="M432 412q1 -64 -33 -111t-91 -50q-24 -1 -61 1.5t-57 2.5q-49 1 -82 -28.5t-32 -78.5q1 -48 34 -75.5t77 -27.5q45 0 74 13q-15 3 -40 26.5t-25 57.5q0 30 22.5 51.5t52.5 21.5q31 0 52 -20.5t21 -50.5q0 -39 -36 -59q14 -12 56.5 -19.5t61.5 -27.5l-32 -41
q-42 21 -79 21q-17 0 -57 -11.5t-75 -11.5q-67 0 -114.5 39t-48.5 114q-1 59 32.5 99.5t88.5 53.5q-11 13 -11 34q0 32 23.5 53t59.5 21t59.5 -21t23.5 -53q0 -21 -11 -32h19q31 1 51 34.5t21 74.5h56zM248 337q0 13 -10.5 23t-24.5 10t-24.5 -10t-10.5 -23t10.5 -23
t24.5 -10t24.5 10t10.5 23zM302 144q0 13 -9 22t-22 9t-22 -9t-9 -22t9 -22t22 -9t22 9t9 22z" />
    <glyph glyph-name="uni0E56" unicode="&#xe56;" horiz-adv-x="406" 
d="M386 154q0 -69 -53.5 -115t-132.5 -46q-71 0 -116.5 37t-45.5 83q0 31 22 50.5t53 19.5t52.5 -19.5t21.5 -49.5q0 -40 -39 -59q18 -10 52 -10q54 0 92 30.5t38 78.5q0 45 -35 74t-85 29q-79 0 -112 -53h-46q-15 102 -103 177l46 31q76 -58 99 -139q45 36 119 36
q75 0 124 -43t49 -112zM144 115q0 13 -9 22t-22 9t-22 -9t-9 -22t9 -22t22 -9t22 9t9 22z" />
    <glyph glyph-name="uni0E57" unicode="&#xe57;" horiz-adv-x="572" 
d="M601 379q-20 -11 -34.5 -31t-18.5 -40q-6 -20 -0.5 -69.5t3.5 -70.5q-6 -68 -42 -112.5t-87 -55.5h-41v204q0 26 -15 40t-39 14q-23 0 -39 -12t-16 -32v-214h-56v216q0 21 -19 31.5t-43 10.5q-30 0 -49 -15.5t-19 -39.5v-69q10 3 22 3q32 0 55 -21t23 -50
q0 -30 -22.5 -50.5t-55.5 -20.5t-55.5 20.5t-22.5 50.5v136q0 50 36.5 77.5t87.5 27.5q58 0 91 -35q33 35 83 35q48 0 78.5 -25.5t30.5 -72.5v-151q22 12 39.5 41.5t18.5 69.5q1 23 -4 77.5t1 71.5q10 53 64 94zM141 66q0 13 -9.5 22.5t-22.5 9.5t-22.5 -9.5t-9.5 -22.5
q0 -14 9 -23.5t23 -9.5t23 9.5t9 23.5z" />
    <glyph glyph-name="uni0E58" unicode="&#xe58;" horiz-adv-x="440" 
d="M441 412q-15 -162 -109 -166q-26 -1 -70 5t-69 6q-52 0 -84.5 -25t-32.5 -70q0 -37 19.5 -65.5t44.5 -40.5l61 78q7 -10 18 -24t37 -37.5t43 -23.5q14 0 27 15q-23 6 -38 22.5t-15 42.5q0 27 21 47t50 20q30 0 52 -19t22 -49q0 -48 -38.5 -90t-85.5 -42q-37 0 -92 55
l-40 -57q-63 11 -102.5 56t-39.5 112q0 69 48 107.5t126 38.5q22 0 63.5 -5t62.5 -4q55 2 65 113h56zM371 129q0 11 -8 19t-19 8t-19 -8t-8 -19t8 -19t19 -8t19 8t8 19z" />
    <glyph glyph-name="uni0E59" unicode="&#xe59;" horiz-adv-x="486" 
d="M508 414q7 -58 -8 -113t-42 -89l-39 12q-2 15 -12.5 26t-29.5 11q-16 0 -26.5 -12t-10.5 -26q54 -82 71 -220l-56 -8q-35 266 -171 266q-46 0 -77 -30t-31 -75q0 -67 49 -99q-4 11 -4 25q0 30 23 51.5t55 21.5t55 -21.5t23 -51.5q0 -39 -30 -63.5t-73 -24.5
q-72 0 -113 47.5t-41 114.5t46.5 112t114.5 45q76 0 122 -44q22 43 70 44q45 2 70 -25q18 54 9 126h56zM231 82q0 13 -9.5 22.5t-22.5 9.5t-22.5 -9.5t-9.5 -22.5q0 -14 9.5 -23.5t22.5 -9.5t22.5 9.5t9.5 23.5z" />
    <glyph glyph-name="uni0E5A" unicode="&#xe5a;" horiz-adv-x="448" 
d="M418 0h-55v400h55v-400zM323 0h-55v292q-20 -26 -58 -46t-82 -20q-45 0 -79 24.5t-34 69.5q0 36 29.5 59t66.5 24.5t70 -8.5v-55q-33 21 -72 14.5t-39 -35.5q0 -20 17.5 -31.5t41.5 -11.5q56 0 92 34t46 90h56v-400z" />
    <glyph glyph-name="uni0E5B" unicode="&#xe5b;" horiz-adv-x="680" 
d="M668 212q0 -6 -9 -11.5t-18 -6.5l-50 -5q-9 -28 -24 -28q-10 0 -29 34q-13 -45 -29 -45q-12 0 -35 51q-15 -61 -32 -61q-4 0 -7.5 3.5t-7.5 11t-7 14t-7.5 18.5t-7.5 18q-6 -30 -18 -53.5t-23 -23.5q-18 0 -23 26q-10 38 -13 48q-16 -68 -54 -110q-49 -55 -111 -55
q-59 0 -96 46t-37 119q0 71 35 119t87 48q43 0 73.5 -35t30.5 -87q0 -41 -19 -67t-48 -26q-25 0 -42.5 19.5t-17.5 45.5t18 46t41 20q7 0 10 -1q-16 39 -45 39q-31 0 -52.5 -35t-21.5 -90q0 -53 25 -84.5t64 -31.5q46 0 80.5 46.5t44.5 123.5q4 24 9.5 32t18.5 8
q10 0 23.5 -21t24.5 -52q11 64 26 64q9 0 22 -16.5t23 -41.5q10 40 22 40q19 0 46 -52q11 38 27 38q14 0 30 -31q8 15 23 14l54 -7q9 -1 17.5 -6t8.5 -9zM212 219q0 13 -7 21.5t-17 8.5q-9 0 -16.5 -8.5t-7.5 -21.5q0 -12 7.5 -20.5t16.5 -8.5q10 0 17 8t7 21z" />
    <glyph glyph-name="zerowidthnonjoiner" unicode="&#x200c;" 
 />
    <glyph glyph-name="zerowidthjoiner" unicode="&#x200d;" 
 />
    <glyph glyph-name="endash" unicode="&#x2013;" horiz-adv-x="365" 
d="M335 144h-305v45h305v-45z" />
    <glyph glyph-name="emdash" unicode="&#x2014;" horiz-adv-x="730" 
d="M699 144h-669v45h669v-45z" />
    <glyph glyph-name="quoteleft" unicode="&#x2018;" horiz-adv-x="189" 
d="M144 388q0 -18 -13.5 -32.5t-32.5 -14.5q-24 0 -38.5 16.5t-14.5 42.5q0 60 66 103l25 -18q-37 -23 -51 -57q8 2 16 2q17 0 30 -12t13 -30z" />
    <glyph glyph-name="quoteright" unicode="&#x2019;" horiz-adv-x="189" 
d="M144 444q0 -60 -66 -103l-25 18q37 23 51 57q-8 -2 -16 -2q-17 0 -30 12t-13 30t13.5 32.5t32.5 14.5q24 0 38.5 -16.5t14.5 -42.5z" />
    <glyph glyph-name="quotedblleft" unicode="&#x201c;" horiz-adv-x="322" 
d="M277 388q0 -18 -13.5 -32.5t-32.5 -14.5q-24 0 -38.5 16.5t-14.5 42.5q0 60 66 103l25 -18q-37 -23 -51 -57q8 2 16 2q17 0 30 -12t13 -30zM144 388q0 -18 -13.5 -32.5t-32.5 -14.5q-24 0 -38.5 16.5t-14.5 42.5q0 60 66 103l25 -18q-37 -23 -51 -57q8 2 16 2
q17 0 30 -12t13 -30z" />
    <glyph glyph-name="quotedblright" unicode="&#x201d;" horiz-adv-x="322" 
d="M277 444q0 -60 -66 -103l-25 18q37 23 51 57q-8 -2 -16 -2q-17 0 -30 12t-13 30t13.5 32.5t32.5 14.5q24 0 38.5 -16.5t14.5 -42.5zM144 444q0 -60 -66 -103l-25 18q37 23 51 57q-8 -2 -16 -2q-17 0 -30 12t-13 30t13.5 32.5t32.5 14.5q24 0 38.5 -16.5t14.5 -42.5z" />
    <glyph glyph-name="bullet" unicode="&#x2022;" horiz-adv-x="360" 
d="M330 200q0 -62 -44 -106t-106 -44t-106 44t-44 106t44 106t106 44t106 -44t44 -106z" />
    <glyph glyph-name="ellipsis" unicode="&#x2026;" horiz-adv-x="483" 
d="M443 35q0 -16 -12 -28t-29 -12t-28.5 11.5t-11.5 28.5t12 29t28 12t28.5 -12t12.5 -29zM282 35q0 -16 -12 -28t-29 -12t-28.5 11.5t-11.5 28.5t12 29t28 12q17 0 29 -12t12 -29zM121 35q0 -16 -12 -28t-29 -12t-28.5 11.5t-11.5 28.5t12 29t28 12t28.5 -12t12.5 -29z" />
    <glyph glyph-name="trademark" unicode="&#x2122;" horiz-adv-x="602" 
d="M552 203h-43v195l-74 -195h-38l-74 197v-197h-43v268h57l78 -206l79 206h58v-268zM240 432h-87v-229h-46v229h-87v39h220v-39z" />
    <glyph glyph-name="thothannobasethai" unicode="&#xf700;" horiz-adv-x="359" 
d="M337 226q0 -116 -61 -175t-159 -53l-57 221l-20 31h71l50 -199q53 6 86.5 52.5t33.5 122.5q0 61 -32.5 96t-87.5 35q-43 0 -73 -18t-39 -50h-55q5 49 51.5 83.5t115.5 34.5q42 0 74 -13q29 14 29 36h61q0 -40 -47 -61q59 -48 59 -143z" />
    <glyph glyph-name="saraileftthai" unicode="&#xf701;" 
d="M-131 450h-275v44h275v-44z" />
    <glyph glyph-name="saraiileftthai" unicode="&#xf702;" 
d="M-131 450h-275v44h219v51h56v-95z" />
    <glyph glyph-name="saraueleftthai" unicode="&#xf703;" 
d="M-102 500q0 -21 -16 -35.5t-40 -14.5h-248v44h190v6q0 21 16.5 35.5t41.5 14.5q24 0 40 -14.5t16 -35.5zM-135 500q0 21 -25 21q-10 0 -16.5 -6t-6.5 -15q0 -10 6.5 -16t16.5 -6q25 0 25 22z" />
    <glyph glyph-name="saraueeleftthai" unicode="&#xf704;" 
d="M-131 450h-275v44h133v51h56v-51h30v51h56v-95z" />
    <glyph glyph-name="maieklowleftthai" unicode="&#xf705;" 
d="M-142 450h-56v95h56v-95z" />
    <glyph glyph-name="maitholowleftthai" unicode="&#xf706;" 
d="M10 450h-200v19q0 25 -27 25h-18v45h34q57 0 57 -45h154v-44z" />
    <glyph glyph-name="maitrilowleftthai" unicode="&#xf707;" 
d="M9 450h-166v42q0 27 -25 27h-7l-47 -29l-48 29h-4q-12 0 -19 -7.5t-6 -19.5v-2h30v-40h-77v46q0 32 21 49t54 17h6l44 -27l43 27h7q33 0 53.5 -17.5t20.5 -48.5v-2h120v-44z" />
    <glyph glyph-name="maichattawalowleftthai" unicode="&#xf708;" 
d="M-118 498h-48v-48h-56v48h-48v42h48v48h56v-48h48v-42z" />
    <glyph glyph-name="thanthakhatlowleftthai" unicode="&#xf709;" 
d="M-116 491h-49q-16 0 -25.5 -8.5t-9.5 -22.5v-10h-56v23q0 32 21 50t52 18h67v-50z" />
    <glyph glyph-name="maieklowrightthai" unicode="&#xf70a;" 
d="M-30 450h-56v95h56v-95z" />
    <glyph glyph-name="maitholowrightthai" unicode="&#xf70b;" 
d="M23 450h-165v19q0 25 -27 25h-18v45h34q57 0 57 -45h119v-44z" />
    <glyph glyph-name="maitrilowrightthai" unicode="&#xf70c;" 
d="M-21 450h-93v42q0 27 -25 27h-7l-47 -29l-48 29h-4q-12 0 -19 -7.5t-6 -19.5v-2h30v-40h-77v46q0 32 21 49t54 17h6l44 -27l43 27h7q33 0 53.5 -17.5t20.5 -48.5v-2h47v-44z" />
    <glyph glyph-name="maichattawalowrightthai" unicode="&#xf70d;" 
d="M-30 498h-48v-48h-56v48h-48v42h48v48h56v-48h48v-42z" />
    <glyph glyph-name="thanthakhatlowrightthai" unicode="&#xf70e;" 
d="M-20 491h-49q-16 0 -25.5 -8.5t-9.5 -22.5v-10h-56v23q0 32 21 50t52 18h67v-50z" />
    <glyph glyph-name="yoyingnobasethai" unicode="&#xf70f;" horiz-adv-x="624" 
d="M594 112q0 -43 -24 -71t-54.5 -37.5t-66.5 -9.5t-66.5 9.5t-54.5 37.5t-24 71v160q0 43 -30.5 64t-82.5 21q-43 0 -75 -16.5t-37 -38.5q33 -25 33 -41q0 -11 -13 -28t-13 -31v-152h72v-50h-128v206q0 13 15.5 28.5t15.5 23.5q0 7 -10.5 16t-20.5 14l-11 5q4 51 55 82.5
t118 31.5q71 0 119.5 -32.5t48.5 -96.5v-158q0 -76 89 -76t89 76v280h56v-288z" />
    <glyph glyph-name="maihanakatleftthai" unicode="&#xf710;" 
d="M9 450h-285v78h56v-34h229v-44z" />
    <glyph glyph-name="nikhahitleftthai" unicode="&#xf711;" 
d="M-101 498q0 -23 -16 -37.5t-41 -14.5t-41 14.5t-16 37.5t16 37.5t41 14.5t41 -14.5t16 -37.5zM-134 498q0 9 -7 15.5t-17 6.5t-17 -6.5t-7 -15.5t7 -15.5t17 -6.5t17 6.5t7 15.5z" />
    <glyph glyph-name="maitaikhuleftthai" unicode="&#xf712;" 
d="M-100 542h-193q-53 0 -53 -30q0 -5 2 -10t4 -7l3 -2h40l85 36l96 -39v-46l-95 40l-79 -34h-69q-34 21 -34 62q0 32 26.5 53t73.5 21h193v-44z" />
    <glyph glyph-name="maiekupperleftthai" unicode="&#xf713;" 
d="M-131 575h-56v75h56v-75z" />
    <glyph glyph-name="maithoupperleftthai" unicode="&#xf714;" 
d="M-74 575h-148v17q0 23 -24 23h-17v40h31q51 0 51 -40h107v-40z" />
    <glyph glyph-name="maitriupperleftthai" unicode="&#xf715;" 
d="M-10 575h-84v38q0 24 -22 24h-7l-42 -26l-43 26h-4q-24 0 -22 -24v-2h27v-36h-69v42q0 28 18.5 43.5t48.5 15.5h6l39 -24l39 24h6q30 0 48.5 -15.5t18.5 -43.5v-2h42v-40z" />
    <glyph glyph-name="maichattawaupperleftthai" unicode="&#xf716;" 
d="M-93 613h-43v-38h-46v38h-43v33h43v38h46v-38h43v-33z" />
    <glyph glyph-name="thanthakhatupperleftthai" unicode="&#xf717;" 
d="M-102 581h-44q-14 0 -23 -8t-9 -20v-9h-50v20q0 29 19 45.5t47 16.5h60v-45z" />
    <glyph glyph-name="saraulowthai" unicode="&#xf718;" 
d="M-30 -290h-56v76h-30v44h86v-120z" />
    <glyph glyph-name="sarauulowthai" unicode="&#xf719;" 
d="M-30 -234q0 -31 -24.5 -48.5t-64.5 -17.5q-42 0 -65.5 17t-23.5 49v20h-20v44h76v-61q0 -26 33 -26t33 26v61h56v-64z" />
    <glyph glyph-name="phinthulowthai" unicode="&#xf71a;" 
d="M-30 -211q0 -17 -12 -29t-29 -12t-29 12t-12 29t12 29t29 12t29 -12t12 -29z" />
    <glyph glyph-name="lochula.short" unicode="&#xf71d;" horiz-adv-x="492" 
 />
    <glyph glyph-name="fongmanfunnuthai" unicode="&#xf880;" 
 />
    <glyph glyph-name="CR" horiz-adv-x="240" 
 />
    <glyph glyph-name="uni0E33_1" horiz-adv-x="205" 
d="M-101 498q0 -23 -16 -37.5t-41 -14.5t-41 14.5t-16 37.5t16 37.5t41 14.5t41 -14.5t16 -37.5zM175 0h-56v300q0 33 -32.5 45t-81.5 3v51q69 11 119.5 -10t50.5 -78v-311zM-134 498q0 9 -7 15.5t-17 6.5t-17 -6.5t-7 -15.5t7 -15.5t17 -6.5t17 6.5t7 15.5z" />
    <glyph glyph-name="uni0E4E_1" 
d="M-22 653q-55 6 -100.5 -4t-45.5 -35q0 -7 4.5 -11.5t15.5 -6.5t17 -2h22v-46q-47 6 -85 -5.5t-38 -32.5q0 -14 24 -14q25 0 57 16l24 -40q-51 -27 -96 -22q-28 3 -44.5 18.5t-17.5 35.5q-1 19 11.5 36.5t32.5 26.5q16 10 40 12q-21 11 -21 36q0 20 17.5 40.5t45.5 31.5
q46 18 137 15v-49z" />
    <glyph glyph-name="F881" 
 />
    <glyph glyph-name="maiekrochula" 
d="M-130 465h-56v95h56v-95z" />
    <glyph glyph-name="maieksarauee_1" 
d="M-74 575h-56v75h56v-75z" />
    <glyph glyph-name="maieksarauee_2" 
d="M-175 575h-56v75h56v-75z" />
    <glyph glyph-name="saraisp" 
d="M-115 465h-285v44h285v-44z" />
    <glyph glyph-name="saraiisp" 
d="M-115 465h-285v44h229v51h56v-95z" />
    <glyph glyph-name="maieknonu" 
 />
    </font>
</defs>
</svg>
